<?xml version="1.0" standalone="no"?>
<!DOCTYPE svg PUBLIC "-//W3C//DTD SVG 1.1//EN" "http://www.w3.org/Graphics/SVG/1.1/DTD/svg11.dtd" >
<svg xmlns="http://www.w3.org/2000/svg">
<metadata>Generated by IcoMoon</metadata>
<defs>
<font id="wcob-osie" horiz-adv-x="1024">
<font-face units-per-em="1024" ascent="960" descent="-64" />
<missing-glyph horiz-adv-x="1024" />
<glyph unicode="&#x20;" horiz-adv-x="512" d="" />
<glyph unicode="&#xe900;" glyph-name="hexagon" d="M1019.717 448.005l-253.856-440.912h-507.728l-253.856 440.912 253.856 440.896h507.728l253.856-440.896z" />
<glyph unicode="&#xe901;" glyph-name="triangle" d="M512.004 896.204l509.328-896.416h-1018.656l509.328 896.416z" />
<glyph unicode="&#xe902;" glyph-name="nodes1" d="M55.691 734.093c-21.664 0-39.216 17.568-39.216 39.232s17.568 39.216 39.216 39.216c18.576 0 34.048-12.944 38.096-30.272l193.36-39.216c9.344 18.336 26.816 31.76 47.664 35.52l3.024 85.2c-16 6.848-27.232 22.704-27.232 41.232 0 24.736 20.080 44.816 44.848 44.816 24.752 0 44.816-20.064 44.816-44.816 0-21.184-14.72-38.816-34.464-43.504l-2.992-83.824c16.608-4.112 30.752-14.368 39.888-28.304l158.512 95.856c-0.736 2.992-1.248 6.096-1.248 9.328 0 21.68 17.568 39.232 39.232 39.232 21.648 0 39.216-17.552 39.216-39.232 0-21.664-17.568-39.216-39.216-39.216-8.176 0-15.76 2.528-22.048 6.8l-164.368-99.424c0.512-3.232 0.832-6.528 0.832-9.92 0-9.76-2.128-19.040-5.92-27.408l249.68-249.072c11.52 9.424 26.24 15.088 42.288 15.088 13.664 0 26.32-4.112 36.88-11.12l118.48 118.496c-6.24 8.88-10 19.664-10 31.344 0 30.176 24.448 54.64 54.624 54.64s54.624-24.464 54.624-54.64-24.464-54.64-54.624-54.64c-8.272 0-16.016 1.984-23.024 5.264l-120.496-120.496c6.56-10.336 10.4-22.576 10.4-35.728 0-5.040-0.608-9.92-1.664-14.656l170.752-57.36c7.040 10.576 19.024 17.568 32.672 17.568 21.664 0 39.232-17.568 39.232-39.232s-17.552-39.184-39.232-39.184c-19.648 0-35.76 14.448-38.624 33.312l-176.688 59.36c-10.128-13.408-25.168-22.848-42.48-25.664l0.032-100.384c20.032-4.464 35.040-22.304 35.040-43.68 0-24.752-20.064-44.832-44.832-44.832s-44.832 20.080-44.832 44.832c0 18.256 10.944 33.904 26.608 40.88l-0.032 104.528c-19.28 5.136-35.088 18.608-43.36 36.368l-225.984-45.52c0.32-2.368 0.72-4.736 0.72-7.184 0-28.736-23.296-52.032-52.048-52.032-3.792 0-7.488 0.448-11.040 1.216l-36.96-91.264c10.672-8.512 17.648-21.44 17.648-36.112 0-7.536-1.952-14.528-5.168-20.816l75.008-78.64c0.336 0.16 0.64 0.336 1.008 0.48 20.352 7.344 42.848-3.264 50.176-23.632 7.312-20.368-3.264-42.848-23.648-50.16-20.384-7.344-42.848 3.248-50.16 23.632-3.808 10.496-2.752 21.552 1.888 30.8l-73.936 77.568c-6.4-3.376-13.616-5.472-21.36-5.472-12.16 0-23.088 4.8-31.344 12.432l-139.072-93.488c1.408-4.032 2.336-8.272 2.336-12.8 0-21.664-17.552-39.2-39.216-39.2-21.648 0-39.184 17.568-39.184 39.2 0 21.664 17.552 39.216 39.184 39.216 6.8 0 13.104-1.888 18.688-4.944l143.376 96.384c-0.624 3.024-0.976 6.176-0.976 9.408 0 25.536 20.688 46.224 46.224 46.224 0.8 0 1.536-0.192 2.336-0.208l38.128 94.816c-9.808 9.472-15.952 22.688-15.952 37.376 0 28.752 23.296 52.064 52.032 52.064 16.192 0 30.496-7.552 40.016-19.152l231.040 47.248c0 0.256-0.032 0.464-0.032 0.72 0 10.72 2.592 20.832 7.056 29.792l-248.816 248.512c-11.776-10.464-27.296-16.88-44.304-16.88-13.744 0-26.496 4.16-37.12 11.264l-129.008-129.008c2.496-5.584 3.968-11.744 3.968-18.256 0-24.768-20.064-44.832-44.816-44.832-24.768 0-44.832 20.048-44.832 44.832 0 24.752 20.064 44.832 44.832 44.832 7.968 0 15.376-2.272 21.856-5.936l128.48 128.496c-6.432 10.288-10.256 22.4-10.256 35.44 0 1.040 0.128 2.048 0.176 3.088l-190.176 38.56c-6.656-12.064-19.424-20.352-34.192-20.352z" />
<glyph unicode="&#xe903;" glyph-name="cite" d="M925.172 786.877h-826.4c-46.592 0-84.48-37.888-84.48-84.464v-427.504c0-46.576 37.888-84.496 84.48-84.496h262.224l145.696-203.664c1.216-1.728 3.2-2.72 5.28-2.72 2.096 0 4.048 0.992 5.296 2.72l145.696 203.664h262.224c46.592 0 84.496 37.92 84.496 84.496v427.504c-0.016 46.592-37.92 84.464-84.512 84.464z" />
<glyph unicode="&#xe904;" glyph-name="nodes2" d="M611.755 946.911c-60.944 0-110.864-49.904-110.864-110.88 0-42.832 24.832-79.952 60.656-98.384l-44-175.664c-15.808 5.008-32.448 7.984-49.904 7.984-38.464 0-73.968-13.248-102.208-35.344l-171.152 144.128c11.568 16.288 18.352 36.16 18.352 57.52 0 54.848-44.928 99.776-99.776 99.776s-99.792-44.928-99.792-99.776c0-54.848 44.944-99.792 99.792-99.792 17.296 0 33.584 4.624 47.808 12.48l173.584-146.208c-20.656-27.712-32.912-62.016-32.912-99.088 0-37.792 12.944-72.512 34.304-100.48l-112.608-112.96c-21.776 15.584-48.224 24.96-76.912 24.96-73.216 0-133.040-59.84-133.040-133.040 0-73.232 59.824-133.056 133.040-133.056s133.056 59.824 133.056 133.056c0 28.672-9.376 55.152-24.944 76.928l112.592 112.592c28.016-21.456 62.96-34.288 100.816-34.288 55.504 0 104.544 27.648 134.784 69.648l167.008-79.008c-1.568-7.696-2.448-15.76-2.448-23.888 0-67.12 54.896-121.968 121.968-121.968 67.088 0 121.968 54.848 121.968 121.968 0 67.072-54.88 121.952-121.968 121.952-43.376 0-81.616-23.152-103.232-57.52l-162.48 77.248c6.72 18.064 10.72 37.52 10.72 57.872 0 16.16-2.592 31.632-6.928 46.416l164.912 109.824c18.336-20.896 45.056-34.304 74.848-34.304 54.864 0 99.776 44.944 99.776 99.792 0 54.864-44.928 99.792-99.776 99.792-54.832 0-99.792-44.928-99.792-99.792 0-9.008 1.216-17.664 3.472-25.984l-161.776-108.096c-12.864 20.544-30 38.352-50.256 51.632l45.728 182.592c2.496-0.176 5.072-0.336 7.616-0.336 61.008 0 110.896 49.904 110.896 110.88-2.224 73.776-57.584 107.712-110.928 110.816z" />
<glyph unicode="&#xe905;" glyph-name="college1" d="M557.485 592.647h113.632v-421.072h-113.632v421.072zM148.301 591.959h113.616v-421.056h-113.616v421.056zM352.893 591.959h113.616v-421.056h-113.616v421.056zM762.061 591.959h113.616v-421.056h-113.616v421.056zM511.965 943.127l-483.040-196.592h966.144zM94.189 116.583h835.6v-61.2h-835.6v61.2zM28.925 701.831h966.144v-49.824h-966.144v49.824zM38.701 14.055h946.608v-61.184h-946.608v61.184z" />
<glyph unicode="&#xe906;" glyph-name="college2" d="M956.918 635.181c1.536 17.312-5.568 26.592-24.112 35.664-135.040 66.448-269.44 133.84-403.568 201.536-6.496 3.232-11.808 4.912-17.248 4.912-5.424 0-10.752-1.664-17.104-4.912-134.272-67.696-268.528-135.056-403.568-201.536-18.528-9.072-25.664-18.352-24.24-35.664 2.208-24 0.656-48.192 0.656-73.008h53.776l130.24-0.736h520.592l130.256 0.736h53.776c0.016 24.8-1.552 49.024 0.544 73.008zM902.55 177.405h-14.096l-0.192 12.704v232.48c0 3.52-0.048 7.056-0.064 10.56-0.112 11.12-0.16 21.184 0.432 31.696 0.592 11.328 9.392 25.344 23.008 29.072 8.528 2.336 13.952 7.824 13.504 13.616-0.64 8.128-5.776 13.072-13.696 13.184-22.352 0.32-45.2 0.48-67.968 0.48-20.8 0-43.472-0.144-71.328-0.448-6.768-0.080-12.784-4.704-13.392-10.304-0.112-1.264-1.008-12.816 7.568-14.624 18.896-3.968 28.496-16.208 28.496-36.368-0.192-58.080-0.176-117.28-0.176-174.528v-80.992c0-6.624 0-11.424-0.416-15.728l-1.088-10.8h-124.608l-0.176 12.672v232.48c0 3.536-0.016 7.056-0.048 10.56-0.128 11.12-0.16 21.2 0.416 31.696 0.624 11.328 9.392 25.344 23.008 29.088 8.512 2.336 13.968 7.808 13.504 13.6-0.656 8.128-5.76 13.072-13.696 13.168-22.336 0.336-45.216 0.48-67.984 0.48-20.8 0-43.472-0.144-71.312-0.448-6.784-0.096-12.816-4.704-13.392-10.304-0.128-1.264-1.008-12.832 7.536-14.624 18.944-3.968 28.528-16.208 28.528-36.368-0.192-58.064-0.176-117.28-0.176-174.528v-80.976c0-6.624 0-11.44-0.416-15.744l-1.072-10.816h-124.624l-0.176 12.688v232.48c0 3.536-0.016 7.072-0.048 10.56-0.112 11.12-0.16 21.2 0.416 31.696 0.624 11.344 9.392 25.344 23.024 29.088 8.512 2.336 13.968 7.808 13.504 13.616-0.672 8.112-5.808 13.056-13.712 13.168-22.336 0.32-45.2 0.48-67.952 0.48-20.8 0-43.488-0.144-71.328-0.448-6.8-0.096-12.816-4.704-13.392-10.304-0.128-1.28-1.008-12.832 7.536-14.624 18.928-3.968 28.512-16.208 28.512-36.384-0.176-58.064-0.16-117.296-0.16-174.56v-80.96c0-6.624 0-11.424-0.432-15.728l-1.056-10.8h-124.624l-0.16 12.656v232.576c0 3.536-0.048 7.056-0.064 10.56-0.096 11.12-0.16 21.184 0.432 31.696 0.608 11.344 9.392 25.328 23.008 29.088 8.528 2.336 13.952 7.824 13.488 13.6-0.656 8.112-5.776 13.072-13.696 13.184-22.336 0.32-45.2 0.48-67.968 0.48-20.8 0-43.472-0.144-71.328-0.448-6.784-0.080-12.816-4.704-13.392-10.288-0.128-1.28-1.008-12.832 7.536-14.624 18.912-3.968 28.512-16.224 28.512-36.368-0.176-58.080-0.16-117.28-0.16-174.56v-80.944c0-6.624 0-11.424-0.432-15.744l-1.072-10.8h-11.984c-19.728 0-35.712-15.984-35.712-35.696v-25.52h852.544v25.52c-0.016 19.76-15.984 35.728-35.744 35.728zM993.83 18.717h-963.664c0 37.568 30.464 68.016 68.016 68.016h827.6c37.616 0 68.048-30.448 68.048-68.016v0z" />
<glyph unicode="&#xe907;" glyph-name="conference1" d="M949.402 329.553h-568.752v213.456l50.608 50.608c32.912-4.656 67.2 5.36 92.4 30.56 42.688 42.688 42.688 111.984 0 154.672-42.704 42.688-111.984 42.688-154.672 0-24.496-24.496-34.528-57.856-30.8-90.032l-155.344-155.376c-25.904-25.888-25.904-68.112 0-94.224 25.888-25.904 68.112-25.904 94.256 0l16.32 16.32v-125.968h-218.832v-87.488h87.472v-306.064h699.856v306.048h87.488v87.488z" />
<glyph unicode="&#xe908;" glyph-name="conference2" d="M977.804 639.97h-710.992v104.192c0 12.272 6.144 18.384 12.256 24.528l42.912 36.752c18.384-6.128 42.896 0 67.424 6.144 49.024 18.368 73.552 67.408 55.168 98.048-12.272 36.784-61.296 49.040-110.32 24.512-42.912-18.368-67.424-55.152-61.296-85.792l-30.656-30.656c-24.528-12.272-36.768-42.912-36.768-73.552v-104.192h-159.36c-12.256 0-24.512-12.256-24.512-24.528v-73.552c0-6.112 61.296-257.408 61.296-257.408 0-6.144 6.128-12.288 12.24-12.288h171.632l61.28-311.6c0-12.272 12.272-24.544 24.512-24.544h318.72c12.272 0 24.512 12.288 24.512 24.544l61.296 311.6h171.632c6.112 0 12.24 6.144 12.24 12.288l61.312 257.408v73.552c0 12.288-12.288 24.544-24.528 24.544z" />
<glyph unicode="&#xe909;" glyph-name="funding1" d="M597.010 853.287c0 47.68-38.336 85.008-84.992 85.008-47.696 0-85.008-38.352-85.008-85.008 0-37.312 22.8-68.4 55.968-79.824v-76.688c-46.656-5.184-90.176-23.84-125.424-51.84l-53.904 53.92c5.184 11.392 8.288 22.8 8.288 36.288 0 47.68-38.336 85.008-85.008 85.008-46.64 0-84.992-38.352-84.992-85.008s38.352-85.008 84.992-85.008c12.448 0 24.88 3.104 36.288 8.304l51.84-54.944c-29.024-36.288-47.68-81.888-52.864-130.608h-75.664c-12.448 33.168-43.536 55.968-79.824 55.968-47.68 0-85.008-38.352-85.008-84.992 0-47.696 38.352-85.008 85.008-85.008 37.328 0 68.4 22.816 79.824 55.984h76.688c6.224-45.616 24.88-86.032 51.84-120.256l-53.904-53.888c-11.408 5.168-22.8 8.304-36.288 8.304-47.68 0-85.008-38.352-85.008-85.008 0-47.68 38.352-85.008 85.008-85.008s85.008 38.352 85.008 85.008c0 12.432-3.104 24.88-8.304 36.288l54.944 50.8c35.248-28 78.784-46.656 125.44-51.856v-76.688c-33.168-12.432-55.984-43.552-55.984-79.808 0-47.696 38.336-85.008 85.008-85.008 47.68 0 84.976 38.336 84.976 85.008 0 37.328-22.768 68.4-55.936 79.808v76.688c46.624 5.2 90.192 23.856 125.424 51.856l53.904-53.904c-5.184-11.408-8.32-22.816-8.32-36.288 0-47.68 38.352-85.008 85.008-85.008 47.664 0 84.992 38.352 84.992 85.008 0 47.664-38.336 85.008-84.992 85.008-12.448 0-24.896-3.12-36.304-8.32l-50.784 54.976c26.944 34.208 45.6 75.664 51.824 120.24h78.8c13.456-30.064 43.552-50.8 77.728-50.8 47.696 0 85.008 38.352 85.008 85.008s-38.352 85.008-85.008 85.008c-38.336 0-71.536-25.92-81.888-61.168h-73.6c-5.2 48.72-23.84 94.336-52.88 130.608l53.904 53.904c31.072-14.512 70.48-9.328 96.4 17.632 33.168 33.168 33.168 87.072 0 120.256-33.168 33.168-87.056 33.168-120.256 0-25.92-25.92-32.16-64.272-17.648-96.4l-43.536-41.472-10.352-10.368c-35.248 28-78.784 46.656-125.44 51.84v75.664c32.192 12.368 55.008 43.472 55.008 80.784zM582.498 570.295c6.224-3.104 8.288-7.264 6.224-13.472-3.104-9.312-5.168-18.656-8.304-27.984-3.088-8.288-5.168-10.352-13.488-6.208-16.576 8.288-34.208 11.392-52.864 10.368-5.168 0-9.328-1.040-14.512-3.12-15.552-7.248-18.656-24.88-5.168-35.248 7.248-5.168 14.512-9.328 22.8-12.432 14.512-6.224 29.008-11.408 42.496-18.672 42.512-23.84 54.928-77.728 23.84-115.056-11.424-13.472-24.88-21.76-41.488-26.944-7.232-2.080-10.336-6.24-10.336-13.504s0-14.512 0-21.776c0-6.208-3.12-10.352-10.368-10.352-8.304 0-15.552 0-23.856 0-7.248 0-10.352 4.16-10.352 11.424 0 5.184 0 10.352 0 16.576 0 11.408 0 12.432-12.432 14.512-14.528 2.080-29.024 5.184-42.496 12.432-10.368 5.184-11.408 7.248-8.304 18.672 2.080 8.304 4.144 16.56 7.264 24.864 3.12 9.344 5.168 10.368 14.512 6.224 14.512-7.248 31.088-12.432 47.68-14.512 10.368-1.008 20.72 0 31.088 4.16 18.656 8.304 21.76 29.024 6.224 42.496-5.168 4.16-11.392 7.248-17.632 10.352-16.576 7.264-33.168 12.448-48.72 21.776-24.88 13.472-40.416 34.208-39.376 64.272 2.064 34.208 21.76 54.928 52.864 66.336 12.432 5.184 12.432 4.144 13.472 17.616 0 4.16 0 9.328 0 13.488 0 10.352 2.080 11.392 12.448 12.432 3.104 0 6.224 0 9.328 0 21.776 0 21.776 0 21.776-21.76 0-15.552 0-15.552 15.536-17.632 10.368-1.040 21.76-4.144 32.144-9.328z" />
<glyph unicode="&#xe90a;" glyph-name="funding2" d="M739.715 267.559l18.64-18.624-11.856-11.856 169.328-169.328c24.56-24.56 65.184-24.56 89.728 0 24.56 24.56 24.56 65.184 0 89.728l-169.312 169.344-11.856-11.856-18.624 18.64c93.968 126.144 83.808 304.784-30.48 419.072-125.312 125.312-328.496 125.312-454.656 0-125.312-126.144-125.312-329.344 0-454.64 114.304-114.288 293.776-124.464 419.088-30.48zM383.283 690.023c91.424 91.44 238.736 91.44 330.176 0 91.456-91.424 91.456-238.736 0-330.192-91.44-91.456-238.752-91.456-330.176 0-91.44 91.456-91.44 239.616 0 330.192zM548.371 334.439c105.824 0 191.344 85.52 191.344 191.344s-85.52 191.344-191.344 191.344c-105.824 0-191.328-85.52-191.328-191.344s85.504-191.344 191.328-191.344zM479.795 484.295l35.568 0.848c3.392 0 6.768-2.544 6.768-5.92 0.848-9.312 3.392-16.080 7.632-20.336 5.072-5.072 12.688-8.464 21.168-8.464 6.784 0 12.688 1.696 16.080 5.936 3.392 4.224 5.936 9.312 5.936 16.080 0 7.632-1.696 13.552-5.936 18.64-3.392 4.224-10.144 8.464-20.32 12.688-22.864 10.16-39.792 19.472-50.8 28.784s-16.096 23.696-16.096 42.336c0 16.944 5.936 30.48 16.944 41.488 10.16 10.16 23.696 16.080 40.64 18.624v26.24c0 3.392 2.528 5.92 5.92 5.92h22.032c3.392 0 5.904-2.528 5.904-5.92v-27.088c15.232-3.392 27.936-10.16 37.264-21.168 9.296-10.16 14.368-23.712 15.232-38.944 0-4.24-3.376-6.768-6.768-7.632l-35.568-0.848c-3.392 0-6.784 2.544-6.784 5.92-0.848 7.632-2.528 13.552-5.904 17.776-4.256 5.088-10.192 7.632-16.976 7.632-6.768 0-12.688-2.544-16.064-6.768-3.392-4.24-5.088-10.16-5.088-16.944 0-6.768 1.696-12.688 5.088-16.928 3.376-4.224 10.16-8.464 20.32-12.704 22.864-10.16 39.792-19.472 50.8-29.632s16.080-23.712 16.080-42.336c0-16.928-5.072-31.328-16.080-41.488-9.312-9.312-21.152-14.384-36.4-17.776v-25.392c0-3.392-2.528-5.936-5.92-5.936h-22.016c-3.392 0-5.92 2.544-5.92 5.936v24.56c-18.64 2.544-33.872 8.464-45.712 20.32-11.008 10.16-17.776 25.392-18.624 44.032-0.016 5.088 3.376 8.464 7.6 8.464z" />
<glyph unicode="&#xe90b;" glyph-name="funding3" d="M762.177 482.414c0 128.816-104.432 233.264-233.264 233.264s-233.264-104.432-233.264-233.264c0-128.8 104.368-233.2 233.168-233.264 128.816 0.112 233.184 104.464 233.36 233.264zM507.361 345.966v17.776c-15.408 0.688-30.656 3.424-45.344 8.096-11.040 3.568-17.424 15.088-14.576 26.352v1.776c2.464 9.552 11.12 16.192 20.976 16.096 2.512 0 4.992-0.416 7.344-1.232 13.232-4.592 27.12-6.976 41.12-7.056 21.648 0 36.512 8.368 36.512 23.52s-12.144 23.52-40.272 33.024c-40.656 13.648-68.4 32.656-68.4 69.536 0 33.408 23.52 59.664 64.272 67.664v17.312c0 10.4 8.416 18.816 18.816 18.816s18.832-8.416 18.832-18.816v-14.768c11.712-0.4 23.344-2.080 34.72-4.992 11.728-3.152 18.704-15.232 15.568-26.976-2.576-9.6-11.264-16.288-21.216-16.32-2.032 0-4.064 0.288-6.016 0.864-10.912 3.184-22.24 4.768-33.6 4.688-24.656 0-32.656-10.64-32.656-21.264 0-12.512 13.264-20.512 45.632-32.64 45.264-16 63.424-36.896 63.424-71.040s-24-62.656-67.472-70.192v-20.144c0-10.384-8.416-18.816-18.816-18.816s-18.832 8.416-18.832 18.816v-0.080zM915.921 482.414c-0.128-89.568-31.472-176.288-88.608-245.2l186.288-186.32c13.856-13.872 13.856-36.352 0-50.24l-3.28-3.312c-13.872-13.824-36.352-13.824-50.256 0l-186.32 186.32c-66.336-54.88-149.152-85.968-235.216-88.272v-28.208c-0.272-6.496-5.728-11.568-12.208-11.312-2.112 0.080-4.176 0.736-5.968 1.888l-100.48 65.856c-5.44 3.472-7.024 10.672-3.552 16.112 0.912 1.424 2.112 2.64 3.552 3.568l100.48 65.856c5.488 3.504 12.752 1.888 16.256-3.616 1.088-1.728 1.728-3.728 1.824-5.808v-27.36c171.92 5.328 306.96 149.040 301.616 320.96-3.488 112.304-67.2 214.016-166.704 266.192-3.136 1.6-4.384 5.456-2.784 8.608 0.48 0.976 1.216 1.792 2.144 2.4l56.432 36.992c3.376 2.192 7.728 2.192 11.104 0 110.176-71.344 176.384-193.888 175.68-325.104zM141.825 482.414c0.576 209.792 167.696 381.2 377.408 387.088v28.24c0.256 6.48 5.712 11.552 12.208 11.296 2.112-0.080 4.16-0.736 5.952-1.888l100.496-65.872c5.424-3.472 7.008-10.672 3.568-16.112-0.944-1.44-2.144-2.656-3.568-3.552l-100.496-65.856c-5.44-3.552-12.72-2-16.272 3.456-1.152 1.776-1.808 3.824-1.888 5.952v28.688c-171.936-5.376-306.928-149.12-301.536-321.040 3.52-112.272 67.2-213.936 166.688-266.096 3.168-1.552 4.48-5.392 2.912-8.56-0.512-1.024-1.296-1.904-2.256-2.528l-56.464-36.976c-3.376-2.208-7.728-2.208-11.104 0-109.776 71.056-175.936 193.056-175.648 323.856v-0.096z" />
<glyph unicode="&#xe90c;" glyph-name="hand1" d="M530.080 166.11l-89.312 29.792c50.144-0.864 126.752 0.704 186.72 14.608l-76.464-35.568c-6.944-3.408-13.952-6.336-20.944-8.832zM663.424 155.15c-16.208-8.208-33.504-13.696-51.184-16.448l-60.48 20.176c1.888 0.864 3.776 1.728 5.664 2.656l196.256 91.296c4.224 2.048 8.656 3.072 13.056 3.072 5.088 0 10.144-1.36 14.752-4.064 8.624-5.040 13.92-13.648 14.496-23.616 0.112-2.032 0.016-4.064-0.288-6.064l-132.272-67.008zM893.712 190.030l-0.048-0.032-136.208-56.544c-38.24-15.872-80.976-17.264-119.936-4.336 11.184 3.216 22.112 7.472 32.608 12.8l191.744 97.12c4.24 2.16 8.768 3.232 13.296 3.232 4.944 0 9.856-1.28 14.4-3.856 8.688-4.896 14.112-13.424 14.88-23.376 0.752-9.6-3.28-18.944-10.736-25.008zM55.6 316.414l85.088-43.328 2.8 7.984c0.128 0.288 11.168 29.952 45.792 52.096 46.224 29.568 113.552 32.496 194.704 8.544 106.512-31.456 186.128-24.752 238.832-20.288 34.128 2.88 58.784 4.96 70.352-5.216 6.608-5.808 10.032-16.288 10.768-32.992 0.48-10.672-3.456-19.952-12.048-28.32-24.208-23.648-83.856-38.496-172.48-42.928-68-3.392-129.216 0.672-129.824 0.736l-58.016 3.952 281.888-94.032c47.184-21.76 101.696-22.816 149.68-2.912l197.536 82.016c8.384 3.472 18.064 3.568 26.048-0.768 10.624-5.76 16.448-16.528 15.472-28.528-0.624-7.792-7.024-17.744-13.44-22.192l-217.616-151.472c-51.856-36.096-119.376-40.752-175.68-12.128l-0.624 0.32-248.672 73.28c-21.616 6.368-44.048 9.6-66.576 9.6h-239.584l15.6 246.576z" />
<glyph unicode="&#xe90d;" glyph-name="hand2" d="M301.008 330.306c85.968 4 157.936-42.976 190.912-62.976 32-20 132.928-75.968 165.92-85.968 31.984-11.008 104.992-2.992 147.952-11.008 41.968-8 54.976-29.984 54.976-41.984 0-12.992-24.992-44.992-102.944-53.984-77.008-9.008-148.944 5.008-207.92 18-58.976 14-105.952-5.008-112.944-8-6-3.008 24.992 12 90.96-3.008 65.952-13.984 129.92-30.992 184.912-27.984s121.936 18.992 147.936 41.984c25.984 22.976 14 62.976-13.008 72.96 0 0 25.984 29.984 41.008 54.992 14 24.992 39.984 80.96 50.976 95.952 11.968 14.992 39.968 30.992 57.968 20s8-48.992 0-67.968c-7.984-18.992-65.968-141.936-137.952-202.912-71.952-60.976-212.896-96.976-252.896-99.936-39.952-3.008-148.912 9.008-205.888 28.976-57.968 20-220.912 121.952-383.824 56.992-0.016-0.992 57.936 263.888 283.856 275.872zM923.712 332.306c-16-11.984-36.992-58.976-43.968-76.976-7.008-18.992-29.984-44.976-40-55.968-10-10.992-19.984-27.984-6-20 14 8 34.992 37.984 43.984 53.968 10 16 25.984 45.984 31.984 60.976 6.016 15.008 11.008 22 17.008 28.992 6 7.008 6 16.016-3.008 9.008zM878.752 296.338c-4 6-14-20-19.008-28-4.992-8-19.984-30.976-29.984-40.976-9.984-10-24.976-24.976-36.976-30.992-11.984-4.992-7.008-9.984 4-9.984 10.992 0 29.984 14.992 34.992 20 5.984 4.992 19.008 24.976 27.008 37.984 7.968 13.984 25.968 42.96 19.968 51.968zM772.784 206.37c-3.008 4-14.976-1.008-19.968-5.008-5.008-4-17.008-8-23.008-9.008-5.008-0.992-1.008-10.992 16.992-8 17.984 3.008 20.016 9.008 21.984 11.008 0.992 1.008 8 6.016 4 11.008z" />
<glyph unicode="&#xe90e;" glyph-name="hand3" d="M104.304 272.798h-91.44v-304.784h91.44zM942.72 319.742c-23.76-11.2-146.096-68.688-205.728-95.408-3.92-35.536-34.096-63.28-70.672-63.28h-284.464v20.32h284.448c21.728 0 40.176 13.76 47.424 32.976 0 0.512 0 3.008 0 7.664v0c0 27.984-22.848 50.8-50.832 50.8h-118.4c-71.776 0-129.456 40.64-206.672 40.64-94.624 0-118-33.2-213.232-72.736v-227.68c63.632 17.44 133.824 25.728 203.056 26.112 84.976 0.48 127.312-3.984 182.288-18.224 28.4-7.376 55.216-3.632 82.096 8.064 103.872 45.088 275.824 134.96 378.72 194.352 88.464 51.040 26.368 122.064-28.032 96.4z" />
<glyph unicode="&#xe90f;" glyph-name="handshake1" d="M267.605 665.274l172.928 131.616c47.344 35.936 109.904 44.896 165.456 23.68l275.664-105.184c17.952-6.752 36.992-10.208 56.192-10.128h45.344c13.2 0.064 23.952-10.592 24-23.792 0-0.208 0-0.4 0-0.624v-337.136c0-13.2-10.688-23.888-23.888-23.888v0h-59.92c-8.608-0.016-16.944-2.992-23.616-8.384l-13.68-11.136c-3.488-2.784-8.576-2.256-11.424 1.216l-321.264 390.384c-8.080 9.872-22.064 12.496-33.2 6.288l-147.2-82.512c-29.6-16.544-65.2-18.288-96.288-4.752-16.64 7.184-24.32 26.464-17.136 43.12 1.84 4.256 4.592 8.096 8.032 11.232zM40.821 320.026h51.824l36.144 44.256c32.528 39.424 90.848 45.008 130.272 12.464 14.56-12.016 25.088-28.208 30.192-46.384 31.104-8.576 55.472-32.752 64.304-63.776 22.72-6.608 42.016-21.68 53.968-42.112 19.616-3.088 37.728-12.336 51.728-26.432 29.616-31.056 35.024-78.016 13.28-115.008l-4.88-8.608c-0.208-0.224-0.208-0.576 0-0.8 23.952-16.72 56.912-10.864 73.6 13.088 8.192 11.728 11.28 26.304 8.528 40.352-0.288 0.528-0.064 1.216 0.496 1.472 0.496 0.272 1.088 0.112 1.408-0.352l3.968-3.856c18.336-18.336 47.088-21.232 68.736-6.864 17.184 11.952 25.68 32.976 21.664 53.536-0.288 0.56-0.048 1.216 0.496 1.504 0.512 0.24 1.088 0.080 1.408-0.384l3.968-3.84c18.336-18.304 47.008-21.168 68.624-6.88 17.424 11.904 26.096 33.040 22.096 53.76-0.304 0.544-0.064 1.216 0.48 1.472 0.512 0.272 1.104 0.112 1.424-0.368l4.448-4.272c17.36-17.184 44.080-20.624 65.2-8.368 25.136 15.024 33.36 47.6 18.336 72.752-1.76 2.944-3.792 5.696-6.096 8.24l-32.384 39.088-261.824 318.576c-2.64 3.264-7.264 4.112-10.928 2.016l-125.136-70.064c-40.24-22.56-88.384-26.256-131.616-10.128-23.808 8.336-42.608 26.928-51.232 50.624-6.864 24.336-3.728 50.4 8.704 72.4 3.136 5.808 0.96 13.056-4.848 16.192-1.776 0.96-3.76 1.456-5.776 1.424h-170.576c-13.2 0.064-23.936-10.592-24-23.792 0-0.032 0-0.064 0-0.096v-337.136c0.128-13.152 10.848-23.744 24-23.696zM223.669 344.234c-19.904 11.136-44.96 6.112-59.024-11.856l-35.12-43.12c-15.552-19.040-12.704-47.136 6.368-62.672 0.192-0.176 0.416-0.336 0.624-0.512l5.36-4.128c14.288-11.248 33.984-12.64 49.712-3.552 0.96 0.656 2.288 0.384 2.944-0.576 0.336-0.512 0.448-1.152 0.288-1.744-3.248-16.464 3.008-33.376 16.192-43.728l4.352-3.456c13.744-10.816 32.528-12.656 48.080-4.656 1.168 0.56 2.56 0.096 3.12-1.072 0.192-0.368 0.272-0.816 0.224-1.248-1.776-15.504 4.624-30.832 16.912-40.496l3.024-2.32c13.92-10.928 32.912-12.688 48.592-4.544 1.2 0.72 2.752 0.336 3.488-0.864 0.208-0.32 0.336-0.688 0.368-1.088 1.824-11.168 7.792-21.28 16.704-28.256l1.92-1.536c19.824-15.472 48.448-11.984 63.968 7.808 1.36 1.728 2.592 3.568 3.68 5.488l6.576 11.536c11.216 18.832 7.936 42.88-7.904 58-13.408 12.16-32.736 15.152-49.2 7.696-0.64-0.336-1.44-0.112-1.776 0.56-0.128 0.224-0.192 0.48-0.144 0.768 1.28 24.736-17.728 45.808-42.464 47.12-6.224 0.304-12.448-0.672-18.272-2.896-6.688-1.216-5.28 4.656-5.28 4.656 9.424 22.864-1.456 49.008-24.304 58.416-12.592 5.184-26.848 4.384-38.752-2.224-4.96-0.736-4.352 3.92-4.352 3.92 12.208 21.152 5.12 48.192-15.904 60.576z" />
<glyph unicode="&#xe910;" glyph-name="handshake2" d="M640.77 94.461c6.496-0.928-6.048-1.424 0 0v0zM53.506 481.261c15.904-4.368 32.32 5.008 36.688 20.912l37.184 135.92 0.16 0.048 20.944 76.304-56.992-27.44c-2.88-1.36-5.392-3.152-7.616-5.232-5.056-3.824-8.976-9.248-10.768-15.84l-40.512-148c-4.368-15.92 5.024-32.336 20.912-36.672zM674.642 524.125l-26.896 104.096-22.832-68.672-112.928-60.912-112.928 60.912-45.552 136.88c-0.528 1.536-1.152 2.944-1.888 4.336-11.104 26.432-33.808 47.68-63.632 55.84-2.064 0.56-4.096 1.024-6.144 1.44-1.376 0.176-2.864 0.352-4.432 0.576-73.632 9.856-106.224-68.032-110.256-78.56l-48.688-177.696c-5.424-19.888-4.176-39.984 2.272-58 1.248-7.824 4.384-15.504 9.616-22.192l0.064-0.080-10.816-138.432-101.584-200.304c-12.032-23.792-2.544-52.896 21.264-64.96 23.776-12.048 52.88-2.512 64.944 21.28l105.36 207.84c2.896 5.696 4.496 11.728 5.024 17.712 0.384 1.984 0.736 3.984 0.912 6.080l10.192 28.112 44.688-57.488 59.744-216.384c7.168-25.696 33.76-40.816 59.472-33.696s40.8 33.712 33.712 59.472l-62.064 224.56c-1.712 6.192-4.56 11.696-8.224 16.512-1.024 1.728-2.16 3.472-3.44 5.072l-54.128 131.264c4.016 6.992 7.184 14.608 9.44 22.72l30.272 111.024 10.176-30.512c0.816-2.496 1.952-4.736 3.296-6.832 2.672-5.328 6.912-9.952 12.576-13.008l135.072-72.832c4.96-2.688 10.4-3.76 15.68-3.52 5.28-0.256 10.672 0.816 15.696 3.52l135.008 72.832c5.312 2.864 9.312 7.12 11.952 12zM1005.97 83.357l-101.584 200.304-10.8 138.432 0.064 0.080c5.232 6.688 8.4 14.352 9.6 22.192 6.464 18.032 7.664 38.128 2.304 58l-41.312 151.248 32.352-15.536 37.216-135.92c4.368-15.904 20.72-25.264 36.624-20.912 15.904 4.336 25.248 20.768 20.912 36.672l-40.528 148c-1.776 6.592-5.696 12.016-10.736 15.84-2.176 2.080-4.72 3.856-7.616 5.232l-116.192 55.888c-22.688 15.584-51.728 21.456-80.32 13.68-3.248-0.912-6.4-1.984-9.52-3.168l0.112 0.144c-50.816-15.504-62.416-53.072-63.776-80.096l-0.288-0.96 56.592-221.024c2.224-8.128 5.344-15.728 9.376-22.72l-54.112-131.264c-1.264-1.616-2.352-3.36-3.44-5.072-3.632-4.816-6.496-10.336-8.176-16.512l-62.112-224.592c-7.072-25.728 7.968-52.336 33.696-59.44s52.368 7.968 59.44 33.696l59.808 216.384 44.704 57.488 10.192-28.144c0.192-2.064 0.496-4.064 0.88-6.048 0.528-6 2.16-12.016 5.040-17.728l105.408-207.84c12.048-23.792 41.104-33.36 64.912-21.264 23.824 12.080 33.36 41.152 21.28 64.96zM399.41 837.693c0-37.67-30.538-68.208-68.208-68.208s-68.208 30.538-68.208 68.208c0 37.67 30.538 68.208 68.208 68.208s68.208-30.538 68.208-68.208zM760.994 837.693c0-37.67-30.538-68.208-68.208-68.208s-68.208 30.538-68.208 68.208c0 37.67 30.538 68.208 68.208 68.208s68.208-30.538 68.208-68.208z" />
<glyph unicode="&#xe911;" glyph-name="handshake3" d="M269.207 677.302c0-59.594-48.31-107.904-107.904-107.904s-107.904 48.31-107.904 107.904c0 59.594 48.31 107.904 107.904 107.904s107.904-48.31 107.904-107.904zM970.583 677.302c0-59.594-48.31-107.904-107.904-107.904s-107.904 48.31-107.904 107.904c0 59.594 48.31 107.904 107.904 107.904s107.904-48.31 107.904-107.904zM903.143 542.422c0 0-53.936 0-94.4 0-67.456 0-134.912-67.44-175.36-94.416-31.008-20.224-86.336-44.512-121.376-58-35.072 13.488-90.368 37.776-121.392 58-40.464 26.976-107.904 94.416-175.344 94.416-40.464 0-94.4 0-94.4 0-60.688 0-107.92-58-107.92-118.688v-312.944h283.232v269.792c0 0 48.544-16.208 78.224-37.776 56.64-43.152 113.312-56.656 137.584-56.656s80.912 13.504 138.912 56.656c28.336 21.584 76.88 37.776 76.88 37.776v-269.776h283.264v312.928c0 60.688-47.216 118.688-107.904 118.688z" />
<glyph unicode="&#xe912;" glyph-name="meeting1" d="M439.492 770.633h153.024c28.224 0 51.36-23.184 51.36-50.384v-111.648h-30.288v58.304c0 7.088-6.016 13.152-12.992 13.152v0c-8.096 0-14.144-6.048-14.144-13.152v-58.304h-138.928v58.304c0 7.088-6.032 13.152-14.064 13.152v0c-7.072 0-13.104-6.048-13.104-13.152v-58.304h-33.232v111.648c0.032 27.216 23.2 50.384 52.368 50.384v0zM515.988 920.617c36.304 0 65.44-29.216 65.44-65.44s-29.136-65.392-65.44-65.392c-36.192 0-65.44 29.184-65.44 65.392 0.016 36.224 29.248 65.44 65.44 65.44zM134.516 513.977h30.144c25.232 0 44.336-20.176 44.336-44.304v-90.576l-44.336-144.976h-30.144c-24.176 0-44.304 20.112-44.304 44.224v191.344c0.016 24.128 20.144 44.288 44.304 44.288v0zM149.572 657.833c34.272 0 61.44-28.112 61.44-61.344 0-34.224-27.152-61.392-61.44-61.392-34.224 0-61.392 27.168-61.392 61.392 0.016 33.232 27.168 61.344 61.392 61.344zM858.244 513.977h31.2c24.16 0 44.24-20.176 44.24-44.304v-191.328c0-24.112-20.096-44.224-44.24-44.224h-23.168l-52.352 170.128v65.424c0.032 24.144 20.144 44.304 44.32 44.304v0zM874.308 657.833c33.216 0 61.504-28.112 61.504-61.344 0-34.224-28.288-61.392-61.504-61.392-34.144 0-61.344 27.168-61.344 61.392 0 33.232 27.2 61.344 61.344 61.344zM631.716 191.849c-9.968 0-19.104-8.080-19.104-18.112v-31.2h37.264v31.2c0 10.032-8 18.112-18.16 18.112zM403.316 191.849c-10.112 0-18.208-8.080-18.208-18.112v-31.2h37.312v31.2c0 10.032-9.088 18.112-19.104 18.112zM847.508 205.225l-94.368 320.896c-10.496 33.504-29.584 62-65.776 62h-339.312c-36.24 0-56.224-28.512-65.776-62l-95.344-320.896c-9.552-33.52 29.568-62 65.776-62h98.16v102.352c0 36.416 30.496 66.96 67.68 66.96h198.304c37.136 0 66.704-30.528 66.704-66.96v-102.352h98.176c36.208 0 75.344 28.48 65.776 62zM517.716 338.105c-47.68 0-85.808 39.376-85.808 87.664 0 48.192 38.128 87.632 85.808 87.632 46.672 0 84.848-39.44 84.848-87.632 0.016-48.288-38.128-87.664-84.848-87.664zM339.828 43.865c0-29.152 19.152-53.376 45.28-63.392v162.064h-45.28v-98.672zM649.876-18.519c25.184 11.008 41.28 35.168 41.28 62.384v98.672h-41.28v-161.056zM422.42 142.537h190.192v-167.136h-190.192v167.136z" />
<glyph unicode="&#xe913;" glyph-name="meeting2" d="M170.938 240.024c-0.24-0.32-0.336-0.56-0.336-0.784v0.784h0.336zM900.394 483.032c-22.24 0-39.968-5.056-53.984-13.696-0.704 44.432-7.84 95.088-61.6 95.088-21.648 0-37.84-6.112-50.080-16.016 1.136 39.488 6.688 102.448-51.456 102.448-50.304 0-65.376-39.584-71.264-75.632-6.784 2.896-14.272 5.296-22.544 7.36-0.912 3.568-1.968 7.248-2.88 10.944-13.696 52.384-15.536 117.072-77.952 118.112-62.512-1.040-64.336-65.728-78.144-118.112-0.928-3.328-1.728-6.672-2.656-9.904-5.872-1.28-11.264-2.752-16.464-4.608-6.336 34.992-21.984 71.824-70.672 71.824-58.128 0-52.624-62.976-51.472-102.448-12.192 9.904-28.416 16.016-50.064 16.016-52.624 0-60.528-48.352-61.472-91.984-13.12 6.688-29.008 10.592-48.336 10.592-105.328 0-96.112-99.904-87.264-193.952 6.896-72.64 51.328-110.032 85.408-125.824 28.768-13.328 53.872-23.824 75.52-32 0.208 0 0.336-0.128 0.432-0.128 71.264-34.16 196.288-57.072 303.088-57.072 102.336 0 238.64 18.864 312.304 54.32 23.264 8.528 50.992 19.92 83.328 34.88 34.080 15.808 78.512 53.2 85.424 125.84 9.008 94.048 18.112 193.952-87.2 193.952zM846.602 230.248c-0.080-1.024-0.448-1.84-0.784-2.4-6.208-14.72-35.344-30.88-79.296-44.656-64-20.272-159.44-35.792-259.92-35.792-94.048 0-181.072 15.536-243.104 35.44-50.672 16.032-84.624 35.008-91.984 50.56-0.448 1.024-0.816 1.84-0.912 2.768-0.24 1.024-0.24 1.952 0 3.088v0.784h0.336c0.336 1.424 1.152 2.912 2.64 4.624l67.216 91.632 38.576 52.736 0.128 0.112 108.192 147.472c4.496 5.888 12.688 12.432 26.96 17.728 1.968 0.688 4.016 1.376 6.208 2.080-1.968-7.84-3.568-14.176-4.704-18.304 0 0 0 0 0-0.112-0.816-3.104-1.296-4.96-1.296-4.96s-1.36-3.904-1.264-8.384c0.24-6 3.008-13.136 15.44-13.136 21.408 0 24.064 18.64 24.064 18.64l7.6 33.968c13.008 1.376 28.176 2.192 45.92 2.192 18.736 0 35.472-0.928 50.064-2.656l7.36-33.488c0 0 2.784-18.64 24.192-18.64 21.392 0 14.016 21.52 14.016 21.52s-2.272 8.768-5.616 22c4.624-1.6 8.736-3.456 12.4-5.296 6.928-3.808 12.32-8.048 16.224-12.896l215.488-293.52c5.856-6.176 6.448-10.336 5.856-13.104zM555.242 771.896c0-27.641-20.874-50.048-46.624-50.048s-46.624 22.407-46.624 50.048c0 27.641 20.874 50.048 46.624 50.048s46.624-22.407 46.624-50.048zM394.666 714.248c0-27.632-20.874-50.032-46.624-50.032s-46.624 22.4-46.624 50.032c0 27.632 20.874 50.032 46.624 50.032s46.624-22.4 46.624-50.032zM288.394 640.632c0-33.232-25.088-60.176-56.080-60.176-30.944 0-56.032 26.944-56.032 60.176 0 33.248 25.088 60.208 56.032 60.208 31.024 0 56.080-26.944 56.080-60.208zM169.578 577.224c0-41.567-31.39-75.264-70.112-75.264s-70.112 33.697-70.112 75.264c0 41.567 31.39 75.264 70.112 75.264s70.112-33.697 70.112-75.264zM722.586 714.248c0-27.632-20.874-50.032-46.624-50.032s-46.624 22.4-46.624 50.032c0 27.632 20.874 50.032 46.624 50.032s46.624-22.4 46.624-50.032zM847.722 640.648c0-33.234-25.101-60.176-56.064-60.176s-56.064 26.942-56.064 60.176c0 33.234 25.101 60.176 56.064 60.176s56.064-26.942 56.064-60.176zM994.65 577.224c0-41.567-31.397-75.264-70.128-75.264s-70.128 33.697-70.128 75.264c0 41.567 31.397 75.264 70.128 75.264s70.128-33.697 70.128-75.264z" />
<glyph unicode="&#xe914;" glyph-name="meeting3" d="M511.961 598.36c-263.744 0-477.568-65.28-477.568-145.728 0-80.432 213.824-145.712 477.568-145.712 263.792 0 477.632 65.28 477.632 145.712 0 80.448-213.824 145.728-477.632 145.728zM239.561 439.064l95.536 72.256h74.576l-55.712-72.256h-114.4zM354.265 390.2l98.528 138.928h119.76l98.512-138.928h-316.8zM669.993 439.064l-55.68 72.256h74.528l95.568-72.256h-114.416zM214.121 598.36c84.128 19.168 186.848 30.464 297.84 30.464 111.024 0 213.76-11.296 297.888-30.464-9.040 31.472-32.256 56.944-62.384 68.912 13.36 11.184 21.824 27.904 21.824 46.688 0 33.6-27.2 60.848-60.752 60.848-33.616 0-60.832-27.248-60.832-60.848 0-18.784 8.496-35.52 21.872-46.688-13.888-5.52-26.224-13.984-36.48-24.48-13.856 32.128-39.744 57.76-72.336 70.72 16.688 13.952 27.36 34.928 27.36 58.384 0 42.016-34.096 76.080-76.096 76.080s-76.064-34.064-76.064-76.080c0-23.472 10.672-44.464 27.344-58.384-32.608-12.96-58.528-38.608-72.368-70.72-10.256 10.496-22.608 18.944-36.464 24.48 13.36 11.184 21.856 27.904 21.856 46.688 0 33.6-27.216 60.848-60.8 60.848-33.616 0-60.832-27.248-60.832-60.848 0-18.784 8.56-35.52 21.872-46.688-30.192-11.968-53.376-37.44-62.448-68.912z" />
<glyph unicode="&#xe915;" glyph-name="group" d="M737.215 172.511h-451.472c-14.976 0-26.736 11.76-26.736 26.752v88.8c0 18.176 10.704 42.784 88.8 92 21.392 12.848 43.856 25.664 63.104 36.384-21.392 24.592-33.152 55.632-33.152 88.784v81.312c0 75.968 62.048 136.944 136.944 136.944 74.912 0 138-60.992 138-136.944v-81.312c0-34.24-12.816-66.336-35.296-92 54.56-28.88 146.576-84.528 146.576-126.24v-87.712c-0.016-13.936-11.792-26.768-26.768-26.768zM348.863 406.815c-12.832 7.488-23.536 13.904-31.024 19.248 21.392 31.024 35.312 71.68 35.312 113.408 0 78.096-50.288 135.872-119.824 135.872-69.552 0-119.824-56.688-119.824-135.872 0-40.656 12.832-80.24 33.168-110.192-17.12-9.632-41.728-24.608-77.024-47.072-29.952-19.248-47.072-53.504-47.072-89.856v-25.696c-1.072-24.576 17.12-42.768 39.584-42.768h174.384v63.104c0 44.928 62.048 89.856 112.32 119.824zM265.423 391.823c-1.072 0-1.072 0-2.144 1.072 1.072-1.072 2.144-1.072 2.144-1.072zM193.743 391.823v0 0zM1001.471 296.607c-2.128 39.584-27.792 74.896-66.336 90.944l-2.144 1.072c4.272 2.144 7.504 5.344 9.648 9.632 5.344 8.56 5.344 18.192 1.056 26.736 0 0-17.12 34.24-20.336 67.408l-2.144 56.704c0 68.464-54.56 125.184-120.896 126.24h-1.056c-66.336-1.056-120.896-57.776-120.896-126.24l-2.16-56.704c-3.2-33.168-20.336-67.408-20.336-67.408-1.040-2.128-1.040-4.272-2.144-5.344 49.232-27.808 131.6-80.24 131.6-131.584v-63.12h175.472c22.448 0 40.64 19.248 40.64 41.696v24.608c0.032 0 0.032 3.232 0.032 5.36z" />
<glyph unicode="&#xe916;" glyph-name="degree1" d="M943.812 739.614h-865.648v-585.216h865.648v585.216zM166.244 647.47h627.712l-22.288-30.368h-627.696l22.272 30.368zM159.156 584.702h627.712l-22.272-30.368h-627.712l22.272 30.368zM151.060 518.894h627.712l-22.272-30.368h-627.712l22.272 30.368zM466.948 426.75h-338.16l12.144 30.384h338.176l-12.16-30.384zM761.572 193.902l-12.16 17.2-44.528-17.2 41.52 96.192c13.136-19.232 46.544-17.216 46.544-17.216l-31.376-78.976zM785.876 285.022c-3.024-2.048-5.056-2.048-7.088 1.008-5.056 6.080-11.136 9.12-19.232 7.088-3.024-1.008-6.080 1.008-7.088 4.048-2.032 7.088-7.072 12.16-15.168 12.16-4.064 0-5.056 3.024-5.056 6.080 0 7.088-2.048 13.152-9.104 16.192-4.048 2.032-5.056 5.056-3.040 9.12 3.040 7.056 1.008 12.144-3.024 17.2s-4.048 5.056 0 10.112c5.056 5.072 6.080 11.152 3.024 17.232-1.008 4.032-2.016 7.072 3.040 9.088 7.056 3.040 10.112 10.128 9.104 17.216 0 3.040 1.008 5.056 5.056 5.056 1.008 0 2.016 1.008 3.024 1.008 6.096 0 9.104 4.064 11.136 9.12 3.024 7.088 3.024 7.088 12.16 7.088 6.080-3.040 10.112 2.016 14.176 7.072 3.024 3.040 5.056 4.048 9.088 1.008 6.080-4.048 12.16-4.048 18.24 0 3.040 2.032 6.080 2.032 8.096-1.008 5.056-6.064 11.136-8.096 19.248-7.072 3.008 1.008 5.040 0 6.064-4.048 2.032-8.096 7.104-12.16 15.2-13.168 4.016 0 5.040-3.024 5.040-6.064-1.024-8.096 3.024-13.152 9.12-17.2 3.024-2.032 5.056-4.064 3.024-8.096-3.024-7.088-2.016-14.192 4.064-19.248 2-3.024 3.008-5.056 0-7.088-6.080-6.064-6.080-13.136-3.056-20.24 1.024-3.040 0-5.056-2.016-7.088-7.072-4.048-11.136-10.112-10.128-18.224 0-3.040-1.008-5.056-4.032-5.056-8.128-1.008-14.192-6.096-16.224-14.176-1.008-3.040-3.024-4.048-6.096-3.040-8.080 2.032-15.168 0-20.24-7.088-2.016-3.008-5.040-3.008-7.072-1.008-7.088 6.048-13.168 6.048-20.24 2.016zM848.66 212.11l-12.16-17.2-32.4 78.96c0 0 33.408-2.016 46.592 17.216l41.504-96.176-43.536 17.2zM861.796 362.974c0 35.44-28.352 63.776-63.76 63.776-35.456 0-63.792-28.336-63.792-63.776s28.336-63.76 63.792-63.76c34.416 0 63.76 29.344 63.76 63.76zM797.012 312.35c-28.336 0-51.648 23.28-51.648 51.648 0 28.336 23.296 51.632 51.648 51.632s51.648-23.28 51.648-51.632c0-28.368-22.272-51.648-51.648-51.648zM34.628 785.166h-6.080v-674.304h966.896v674.304h-960.816zM967.092 131.102h-912.208v631.792h912.208v-631.792z" />
<glyph unicode="&#xe917;" glyph-name="degree2" d="M18.403 815.339v-734.672h987.2v734.672h-987.2zM190.595 712.011h642.832c12.672 0 22.96-10.272 22.96-22.96 0-12.672-10.288-22.96-22.96-22.96h-642.832c-12.672 0-22.96 10.288-22.96 22.96 0.016 12.704 10.288 22.96 22.96 22.96zM190.595 608.699h642.832c12.672 0 22.96-10.288 22.96-22.96s-10.288-22.96-22.96-22.96h-642.832c-12.672 0-22.96 10.288-22.96 22.96s10.288 22.96 22.96 22.96zM512.035 482.443c63.392 0 114.784-51.392 114.784-114.784s-51.392-114.8-114.784-114.8c-63.408 0-114.8 51.408-114.8 114.8s51.376 114.784 114.8 114.784zM380.723 326.043c12.096-37.904 40.304-68.832 76.416-84.656l-71.392-80.368-11.472 68.896-68.88 11.488 75.328 84.64zM643.283 326.043l75.36-84.656-68.88-11.488-11.472-68.896-71.408 80.368c36.128 15.84 64.32 46.768 76.4 84.672z" />
<glyph unicode="&#xe918;" glyph-name="graduation" d="M503.935 788.562c-8.736 0-17.472-1.616-24.16-4.848l-443.072-213.456 443.072-213.488c13.376-6.432 34.944-6.432 48.336 0l410.864 197.952v-329.744c-9.952-6.256-16.096-17.728-16.112-30.208 0-12.464 6.16-23.984 16.112-30.208l-12.096-57.136h56.384l-12.080 57.136c9.968 6.24 16.096 17.728 16.112 30.208-0.016 12.464-6.144 23.968-16.112 30.208v345.264l-443.088 213.472c-6.688 3.232-15.408 4.848-24.16 4.848v0zM221.983 446.050v-159.312c94.816-178 455.232-204.144 563.92-0.128v159.44l-257.792-124.176c-13.392-6.464-34.96-6.464-48.336 0l-257.792 124.176z" />
<glyph unicode="&#xe919;" glyph-name="factory" d="M97.68 569.347v-123.6h-29.52c-17.504 0-32.816-14.224-32.816-32.816v-168.448h-16.4v-308.448h469.216v73.328c0 36.080 28.448 64.48 64.544 64.48s64.512-28.4 64.512-64.48v-73.328h120.336v73.328c0 36.080 28.432 64.48 64.528 64.48 36.112 0 64.528-28.4 64.528-64.48v-73.328h125.792v642.064l10.928 4.368-4.384 9.856-324.832-148.768v134.544l10.96 5.472-4.368 9.84-278.944-127.984v269.072c0 25.152-20.784 47.024-47.024 47.024h-121.408c-25.136 0-47.008-20.784-47.008-47.024v-47.040c-48.144-7.648-84.224-47.008-88.608-95.136v-22.976zM64.88 414.035c0 2.192 1.088 3.28 3.28 3.28h29.536v-172.832h-32.8v169.552zM145.824 106.691h-72.192v45.936h72.192v-45.936zM235.504 106.691h-72.192v45.936h72.192v-45.936zM324.096 106.691h-72.192v45.936h72.192v-45.936zM307.696 591.219c-3.28 50.32-42.672 90.784-92.976 96.24v47.040c0 9.84 7.664 18.608 18.592 18.608h122.496c9.856 0 18.608-7.664 18.608-18.608v-282.192l-18.608-8.768v-199.056h-45.936v324.864l-2.176 21.872zM541.76 167.939h-65.632v65.632h65.632v-65.632zM541.76 253.251h-65.632v65.648h65.632v-65.648zM623.808 167.939h-65.632v65.632h65.632v-65.632zM623.808 253.251h-65.632v65.648h65.632v-65.648zM704.736 167.939h-65.616v65.632h65.616v-65.632zM704.736 253.251h-65.616v65.648h65.616v-65.648zM786.768 167.939h-65.616v65.632h65.616v-65.632zM786.768 253.251h-65.616v65.648h65.616v-65.648zM803.184 318.899h65.632v-65.648h-65.632v65.648zM803.184 167.939v65.632h65.632v-65.632h-65.632z" />
<glyph unicode="&#xe91a;" glyph-name="briefcase" d="M714.841 692.336v68.608c0 71.024-57.76 128.8-128.8 128.8h-149.232c-71.024 0-128.8-57.776-128.8-128.8v-69.808h66.192v69.808c0 34.912 27.68 62.608 62.608 62.608h149.232c34.928 0 62.608-27.696 62.608-62.608v-69.808h66.192v1.2zM972.409 452.8c-90.272-40.928-351.456-151.664-460.992-151.664s-370.736 110.736-461.008 151.664v-446.56h923.2v446.56h-1.2zM972.409 500.96v140.816h-921.984v-140.816c63.792-28.88 352.672-155.296 461.008-155.296 108.32 0 397.216 126.4 460.976 155.296z" />
<glyph unicode="&#xe91b;" glyph-name="company" d="M970.432-1.961h-25.84v476.864c0 5.84-2.336 11.424-6.528 15.536l-151.472 151.472c-6.528 6.848-17.376 7.12-24.256 0.592-3.312-3.168-5.216-7.536-5.28-12.128v-632.32h-44.816v765.792c0 6.64-5.376 12.016-12 12.016h-376.4c-6.608-0.048-11.936-5.408-11.936-12.016v-765.808h-44.784v632.32c0.112 9.456-7.472 17.232-16.928 17.328-4.8 0.064-9.408-1.904-12.704-5.408l-151.472-151.472c-4.128-4.112-6.448-9.696-6.432-15.536v-477.248h-25.936c-6.656 0-12.064-5.36-12.112-12.016v-37.872c0-6.704 5.424-12.128 12.112-12.128h916.784c6.656 0 12.032 5.392 12.032 12.016v37.888c0 6.656-5.376 12.080-12.032 12.128zM436.32 50.311c0-6.592-5.328-11.936-11.936-11.936v0h-37.872c-6.592 0-11.92 5.344-11.92 11.936v0 37.856c-0.048 6.592 5.248 11.984 11.824 12.032 0.096 0 0.192 0 0.288 0h37.856c6.592-0.112 11.856-5.536 11.744-12.112v0-37.776zM436.32 152.279c0-6.608-5.328-11.936-11.936-11.936v0h-37.872c-6.592 0-11.92 5.328-11.92 11.936v0 37.84c0 6.608 5.328 11.936 11.92 11.936v0h37.872c6.592 0 11.936-5.328 11.936-11.936v0-37.84zM436.32 254.231c0.048-6.56-5.184-11.92-11.744-12.032h-37.856c-6.592 0-11.936 5.344-11.936 11.936v37.872c0 6.576 5.328 11.92 11.936 11.92h37.856c6.48-0.112 11.696-5.36 11.744-11.84v-37.856zM436.32 356.295c0-6.592-5.328-11.936-11.936-11.936h-37.872c-6.592 0-11.92 5.344-11.92 11.936v37.392c0 6.592 5.328 11.936 11.92 11.936h37.872c6.592 0 11.936-5.344 11.936-11.936v-37.392zM436.32 458.247c0-6.592-5.328-11.936-11.936-11.936h-37.872c-6.592 0-11.92 5.328-11.92 11.936v37.856c0 6.592 5.328 11.936 11.92 11.936h37.872c6.592 0 11.936-5.328 11.936-11.936v-37.856zM436.32 560.215c0-6.592-5.328-11.936-11.936-11.936h-37.872c-6.592 0-11.92 5.328-11.92 11.936v37.856c0 6.592 5.328 11.936 11.92 11.936h37.872c6.56 0 11.888-5.28 11.936-11.824v-37.968zM436.32 662.167c0-6.592-5.328-11.936-11.936-11.936h-37.872c-6.592 0-11.92 5.328-11.92 11.936v37.872c0 6.592 5.328 11.936 11.92 11.936h37.872c6.56 0 11.888-5.28 11.936-11.84v-37.968zM542.912 50.311c0-6.592-5.312-11.936-11.936-11.936v0h-37.856c-6.592 0-11.92 5.344-11.92 11.936v0 37.856c-0.048 6.592 5.248 11.984 11.824 12.032 0.032 0 0.064 0 0.096 0h37.856c6.624 0 11.936-5.344 11.936-11.936v0-37.952zM542.912 152.279c0-6.608-5.312-11.936-11.936-11.936v0h-37.856c-6.592 0-11.92 5.328-11.92 11.936v0 37.84c0 6.608 5.328 11.936 11.92 11.936v0h37.856c6.624 0 11.936-5.328 11.936-11.936v0-37.84zM542.912 254.231c0.064-6.592-5.248-11.968-11.808-12.032-0.064 0-0.096 0-0.128 0h-37.856c-6.592 0-11.92 5.344-11.92 11.936v37.872c-0.112 6.576 5.136 12 11.728 12.112 0.064 0 0.128 0 0.192 0h37.856c6.624 0 11.936-5.344 11.936-11.92v-37.968zM542.912 356.295c0-6.592-5.312-11.936-11.936-11.936h-37.856c-6.592 0-11.92 5.344-11.92 11.936v37.392c-0.272 6.592 4.848 12.128 11.44 12.384 0.16 0.016 0.336 0.016 0.48 0.016h37.856c6.624 0 11.968-5.344 11.968-11.92 0-0.176 0-0.336-0.032-0.48v-37.392zM542.912 458.247c-0.064-6.56-5.376-11.84-11.936-11.84h-37.856c-6.592 0-11.92 5.344-11.92 11.936v37.872c0 6.592 5.328 11.936 11.92 11.936v0h37.856c6.624 0 11.936-5.344 11.936-11.936v-37.968zM542.912 560.215c-0.064-6.56-5.376-11.84-11.936-11.84h-37.856c-6.592 0-11.92 5.344-11.92 11.936v37.872c0 6.592 5.328 11.936 11.92 11.936h37.856c6.624 0 11.936-5.344 11.936-11.936v-37.968zM542.912 662.167c-0.096-6.512-5.408-11.744-11.936-11.744h-37.856c-6.592 0-11.92 5.328-11.92 11.936v37.872c0 6.592 5.328 11.936 11.92 11.936h37.856c6.624 0 11.936-5.344 11.936-11.936v-38.064zM649.312 50.311c0-6.592-5.344-11.936-11.904-11.936v0h-37.904c-6.496 0.112-11.712 5.424-11.712 11.936v37.856c-0.032 6.56 5.184 11.92 11.712 12.032h37.904c6.56 0 11.904-5.344 11.904-11.936v0-37.952zM649.312 152.279c0-6.608-5.344-11.936-11.904-11.936v0h-37.904c-6.528 0.096-11.744 5.472-11.712 12.016v37.872c0 6.576 5.344 11.92 11.936 11.92v0h37.872c6.528-0.112 11.776-5.456 11.712-12.032v-37.84zM649.312 254.231c0.064-6.592-5.216-11.968-11.808-12.032-0.032 0-0.064 0-0.096 0h-37.904c-6.56 0.112-11.84 5.536-11.712 12.128v0 37.872c0 6.576 5.344 11.92 11.936 11.92h37.872c6.56 0 11.904-5.344 11.904-11.92l-0.192-37.968zM649.312 356.295c0-6.592-5.344-11.936-11.904-11.936h-37.904c-6.528 0.112-11.744 5.472-11.712 12.016v37.312c0 6.592 5.344 11.936 11.936 11.936h37.872c6.496-0.128 11.712-5.424 11.712-11.936v-37.392zM649.312 458.247c0-6.592-5.344-11.936-11.904-11.936h-37.904c-6.528 0.096-11.744 5.472-11.712 12.016v37.872c0 6.592 5.344 11.936 11.936 11.936h37.872c6.56 0 11.904-5.344 11.904-11.936l-0.192-37.952zM649.312 560.215c0-6.592-5.344-11.936-11.904-11.936h-37.904c-6.56 0.096-11.84 5.52-11.712 12.112v0 37.872c0 6.592 5.344 11.92 11.936 11.92h37.872c6.528-0.096 11.776-5.472 11.712-12.016v-37.952zM649.312 662.167c0-6.592-5.344-11.936-11.904-11.936h-37.904c-6.56 0.096-11.84 5.52-11.712 12.112v0 37.872c0 6.592 5.344 11.936 11.936 11.936h37.872c6.56 0 11.904-5.344 11.904-11.936l-0.192-38.048z" />
<glyph unicode="&#xe91c;" glyph-name="hired" d="M500.798 256.146c0 148.624 120.112 268.72 267.68 268.72 67.152 0 128.24-24.432 176.064-66.16v227.984c0 29.52-23.424 52.928-52.928 52.928h-204.56v31.536c0 53.952-43.76 96.688-96.704 96.688h-210.672c-53.952 0-96.688-43.76-96.688-96.688v-31.536h-203.552c-29.52 0-52.928-23.408-52.928-52.928v-576.048c0-29.536 23.408-52.944 52.928-52.944h508.88c-53.952 49.872-87.52 120.096-87.52 198.448zM342.014 771.154c0 20.352 17.296 37.664 37.664 37.664h210.672c20.336 0 37.664-17.312 37.664-37.664v-31.536h-286v31.536zM768.478 486.178c-126.224 0-229.008-102.8-229.008-229.008s102.8-229.008 229.008-229.008c126.208 0 228.992 102.8 228.992 229.008 1.008 126.224-101.792 229.008-228.992 229.008zM737.934 178.818l-78.352 78.352 28.496 28.512 49.856-49.872 102.8 102.8 28.48-28.496-131.28-131.296z" />
<glyph unicode="&#xe91d;" glyph-name="papers" d="M807.758 765.426v51.6h-592.336v-740h51.616v688.4zM701.454 866.69v51.6h-592.336v-740.016h51.6v688.416zM859.358 717.714h-536.8v-740.016h592.32v740.016z" />
<glyph unicode="&#xe91e;" glyph-name="journal" d="M257.783-37.025l659.904 13.904-24.48 70.8c-88.592-30.464-310.96-68.272-635.424-84.704zM351.223-5.441c191.936 18.912 453.52 54.864 566.464 106.064l-39.664 103.376c-122.432-87.984-354.912-162.608-526.8-209.44zM708.951 933.039c0 0-40.416-97.648-196.976-188.544-107.104-62.192-277.76-104.368-277.76-104.368l-127.92-663.248c0 0 295.104 86.592 518.48 239.040 212.096 144.768 242.4 222.208 242.4 222.208l-158.224 494.912zM564.583 472.671c-104.576-60.704-248.256-106.512-325.76-128.704l47.728 247.504c58.688 16.64 173.184 52.624 255.856 100.624 64.304 37.312 111.088 75.952 144.72 110.176l60.992-190.752c-43.296-43.376-102.688-91.888-183.536-138.848zM647.527 182.575c-73.184-49.984-199.632-112.384-274.848-147.616 157.792 45.44 426.704 144.816 518.048 231.456l-36.56 86.608c-37.072-40.528-100.16-97.808-206.64-170.448z" />
<glyph unicode="&#xe91f;" glyph-name="paper" horiz-adv-x="809" d="M559.474 912h-521.536v-928.004h733.121l0.010 726.488zM559.432 856.32l155.946-145.87h-155.946z" />
<glyph unicode="&#xe920;" glyph-name="book1" d="M655.109 218.457c40.32 31.726 123.217 116.689 152.021 213.378-65.599 80.7-341.663 425.033-405.397 504.554-6.518-75.472-72.832-234.293-187.888-287.379-52.863-25.792-105.555-41.871-125.605-47.564l393.699-476.748c44.481 14.347 132.365 61.729 173.169 93.757zM921.058 188.524c-65.487-38.093-134.813-73.355-208.29-100.034-86.967-31.575-191.928-67.31-225.539-77.214v-51.654l433.687 155.951 0.141 72.953zM79.657 586.354v-143.297l391.030-482.158 0.333 151.558zM904.051 238.213c-50.556-39.655-114.714-79.804-184.151-114.482-65.699-32.905-210.355-77.255-232.661-84.015v-11.526c37.137 10.982 131.338 39.273 213.962 70.656 91.723 34.829 222.859 117.152 222.859 117.152l-20.009 22.215zM825.063 435.532l-1.148-4.060c-28.724-102.18-113.343-189.994-158.802-225.77-42.567-33.439-131.065-81.144-177.873-96.327v-21.842c65.789 20.492 157.733 64.076 208.763 99.964 87.642 61.74 173.239 147.397 225.871 225.72l0.473-0.363c-59.291 66.939-388.844 444.155-410.203 471.277-7.244-13.672-13.782-22.82-24.401-29.087 109.132-136.093 288.125-359.142 334.66-416.237l2.659-3.274zM889.987 343.95c0 0-116.749-121.907-184.654-169.723-57.387-40.381-146.087-80.015-218.093-102.442v-15.093c6.972 2.136 18.518 5.703 32.925 10.287 53.055 16.895 145.18 47.574 192.492 71.25 93.747 46.829 177.552 103.511 230.052 155.014 0.544 0.534 1.068 1.068 1.622 1.612l-54.345 49.096z" />
<glyph unicode="&#xe921;" glyph-name="book2" d="M834.691 920.496h-467.52c-18.56 0-48.96 0-67.52 0h-52.16c-18.56 0-45.152-10.048-59.088-22.32l-7.472-6.608c-13.952-12.288-25.344-37.52-25.344-56.080v-826.24c0-18.576 15.2-33.76 33.76-33.76h587.152c18.592 0 33.728 15.184 33.728 33.76v800.48c0 18.576-15.136 33.744-33.728 33.744h-392.48c0 12.304-9.984 22.272-22.24 22.272s-22.208-9.968-22.208-22.272v-231.68l-55.904 54.592-48.384-54.592v231.712h-45.936c-0.24 0-0.448-0.048-0.704-0.064l36.32 41.584h609.168v-843.744h0.544c18.528 0 33.744 15.2 33.744 33.744v811.712c0.032 18.592-15.168 33.76-33.728 33.76z" />
<glyph unicode="&#xe922;" glyph-name="book3" d="M961.080 736.34c0-166.576 0-416.496 0-503.936-127.472 0-396.384-43.248-449.072-127.904-52.736 84.656-321.6 127.904-449.12 127.904 0 87.44 0 337.376 0 503.936-9.872 0.352-19.12 0.56-27.504 0.56v-549.968c135.296 0 420.672-40.528 476.608-119.872 55.936 79.344 341.28 119.872 476.624 119.872v549.968c-8.4 0-17.664-0.208-27.536-0.56zM507.224 123.524c0 118.848 0 456.656 0 579.168-56.896 85.392-319.536 126.24-428.96 126.24 0-23.376 0-51.232 0-81.952 0-164.336 0-410.96 0-497.232 121.808 0 378.592-42.688 428.96-126.224zM516.76 123.524c50.336 83.536 307.2 126.224 428.96 126.224 0 86.272 0 332.88 0 497.232 0 30.72 0 58.576 0 81.952-109.456 0-372.048-40.832-428.96-126.24 0-122.528 0-460.32 0-579.168z" />
<glyph unicode="&#xe923;" glyph-name="award1" horiz-adv-x="551" d="M551.079 582.022c0 23.724-23.945 43.991-29.802 65.864-6.054 22.634 4.391 52.134-7.078 71.95-11.641 20.111-42.5 25.739-58.819 42.050-16.318 16.318-21.963 47.186-42.074 58.827-19.8 11.469-49.316 1.032-71.942 7.086-21.881 5.857-42.148 29.811-65.872 29.811s-43.991-23.953-65.872-29.811c-22.634-6.054-52.126 4.391-71.95-7.086-20.103-11.633-25.739-42.5-42.066-58.827-16.327-16.31-47.186-21.955-58.81-42.050-11.469-19.816-1.032-49.316-7.086-71.95-5.857-21.881-29.802-42.14-29.802-65.864s23.945-43.991 29.802-65.864c6.054-22.634-4.383-52.126 7.086-71.95 11.633-20.111 42.5-25.739 58.81-42.058 16.327-16.31 21.955-47.186 42.066-58.81 3.834-2.22 1.802-2.22 1.802-2.22 4.784-1.155 6.668 2.245 6.668 7.545v67.584c0 3.621 0.721 8.356-1.147 12.304-42.017 35.226-68.198 87.368-70.427 145.826-0.238 2.58 0.115 5.145 0.115 7.651 0.008 110.617 89.948 200.286 200.548 200.294 110.6-0.008 200.401-89.661 200.409-200.294 0-2.515-0.098-5.063-0.328-7.651-2.22-58.45-27.353-110.592-69.378-145.826-1.868-3.949-1.114-8.684-1.114-12.304v-67.584c0-5.292 1.884-8.7 6.668-7.545 0 0-1.024 0 2.818 2.22 20.103 11.624 25.24 42.5 41.55 58.81 16.31 16.318 46.924 21.971 58.548 42.058 11.469 19.825 0.909 49.316 6.98 71.95 5.857 21.873 29.696 42.14 29.696 65.864zM275.492 381.736c-2.908 0-5.947 0.18-9.052 0.467-33.243 1.499-63.103 11.059-90.235 26.886-3.195 0-4.186-2.4-4.186-6.406v-55.329c0-5.292 0-13.967 0-19.284v-283.959c0-5.292 2.367-7.274 6.808-4.358l89.244 58.851c4.44 2.9 11.37 2.9 15.819 0l88.441-58.851c4.44-2.908 6.652-0.934 6.652 4.358v283.959c0 5.308 0 13.984 0 19.284v55.329c0 4.006-0.991 6.423-4.194 6.406-27.132-15.835-57.623-25.395-90.866-26.886-3.113-0.279-5.521-0.467-8.43-0.467zM275.492 762.541c-99.533 0-180.519-80.986-180.519-180.519 0-99.525 80.978-180.519 180.519-180.519s180.511 80.978 180.511 180.519-80.978 180.519-180.511 180.519z" />
<glyph unicode="&#xe924;" glyph-name="award2" horiz-adv-x="819" d="M675.145 571.477c0 22.872-23.077 42.394-28.729 63.488-5.825 21.815 4.227 50.25-6.824 69.353-11.215 19.382-40.96 24.805-56.689 40.534-15.737 15.729-21.16 45.482-40.55 56.697-19.112 11.059-47.546 0.999-69.362 6.832-21.086 5.652-40.624 28.746-63.488 28.746s-42.402-23.093-63.496-28.738c-21.807-5.833-50.25 4.227-69.353-6.832-19.374-11.207-24.814-40.96-40.55-56.689-15.729-15.729-45.474-21.16-56.697-40.542-11.059-19.104-0.999-47.538-6.824-69.353-5.644-21.103-28.721-40.624-28.721-63.488 0-22.872 23.069-42.394 28.721-63.488 5.833-21.823-4.235-50.25 6.824-69.362 11.223-19.382 40.968-24.797 56.697-40.526 15.245-15.245 34.726-48.366 34.726-48.366 2.294-3.908 5.448-3.613 6.996 0.639l9.88 27.124 9.871 27.132c1.090 2.998 0.754 6.955-0.573 10.224-48.701 35.086-80.56 92.16-80.56 156.631 0 106.455 86.614 193.053 193.061 193.053s193.061-86.598 193.061-193.053c0-64.471-31.859-121.545-80.56-156.631-1.327-3.269-1.663-7.217-0.573-10.224l9.871-27.132 9.88-27.124c1.54-4.26 4.694-4.547 6.996-0.639 0 0 19.481 33.112 34.726 48.357 15.729 15.72 45.474 21.16 56.689 40.55 11.051 19.104 0.999 47.53 6.824 69.353 5.644 21.078 28.729 40.6 28.729 63.472zM514.467 369.429l-9.175 25.215c-1.368 3.768-5.161 5.587-8.897 4.727-15.524-7.848-32.236-13.55-49.807-16.966-3.891-1.638-7.766-5.308-9.118-9.036l-7.635-20.972-7.651-20.996c-1.54-4.26-1.606-11.026-0.139-15.057 1.475-4.039 3.94-10.813 5.489-15.073l87.040-239.108c1.54-4.26 4.383-4.383 6.3-0.279l55.796 119.636c1.917 4.104 2.22 10.953 0.672 15.204l-48.062 132.006c-0.77 2.13-1.794 4.932-2.818 7.741v0l-11.993 32.956zM402.089 330.468c0.549 1.532 1.262 3.473 1.991 5.472l0.475 1.319 0.401 1.090c0.754 2.081 1.499 4.104 2.073 5.693 1.368 3.727 3.752 10.265 5.292 14.524l4.596 13.345c1.049 2.875 0.492 5.382-1.065 6.775-2.105-0.139-4.202-0.262-6.341-0.262-3.457 0-6.824 0.336-10.224 0.516-3.375 0.188-6.775 0.229-10.093 0.573-3.539 0.377-6.98 1.040-10.461 1.606-20.005 3.236-38.945 9.535-56.418 18.407-3.604 0.68-7.209-1.147-8.561-4.776l-21.201-58.27h-0.008c-1.024-2.802-2.040-5.603-2.81-7.725l-48.054-132.006c-1.54-4.26-1.245-11.1 0.672-15.204l55.796-119.644c1.909-4.104 4.751-3.981 6.3 0.279l87.032 239.108c1.54 4.26 4.014 11.035 5.489 15.073l1.458 3.998c1.262 3.506 2.703 7.463 3.662 10.109zM371.361 401.329c3.482-0.786 7.029-1.368 10.584-1.933 3.473-0.549 6.922-1.188 10.445-1.532 5.636-0.541 11.338-0.86 17.113-0.86s11.477 0.319 17.113 0.86c3.531 0.344 6.98 0.983 10.445 1.532 3.555 0.565 7.102 1.147 10.584 1.933 17.228 3.858 33.456 10.273 48.366 18.833 2.744 1.573 5.439 3.203 8.077 4.923 2.695 1.737 5.3 3.604 7.889 5.489 43.532 31.752 71.999 83.010 71.999 140.911 0 96.215-78.266 174.481-174.481 174.481s-174.481-78.266-174.481-174.481c0-57.901 28.467-109.158 71.999-140.911 2.58-1.884 5.194-3.752 7.889-5.489 2.638-1.72 5.333-3.342 8.077-4.923 14.926-8.561 31.154-14.983 48.382-18.833z" />
<glyph unicode="&#xe925;" glyph-name="award3" d="M458.657 255.461l-42.667 38.4-59.733-8.533c-38.4-4.267-76.8 21.333-85.333 59.733l-8.533 55.467h-4.267l-132.267-264.533 153.6 21.333 76.8-136.533 110.933 226.133c-4.267 4.267-4.267 4.267-8.533 8.533zM761.59 400.528v0l-12.8-55.467c-8.533-34.133-38.4-59.733-72.533-59.733v0c-4.267 0-8.533 0-8.533 0l-59.733 8.533-42.667-38.4c-4.267-4.267-4.267-4.267-8.533-8.533l110.933-226.133 76.8 132.267 153.6-21.333-136.533 268.8zM791.457 686.394l-72.533 34.133-12.8 76.8c-4.267 17.067-21.333 29.867-38.4 25.6l-81.067-12.8-59.733 55.467c-12.8 12.8-34.133 12.8-46.933 0l-59.733-55.467-68.267 12.8c-21.333 4.267-34.133-8.533-38.4-25.6l-12.8-76.8-72.533-34.133c-17.067-8.533-21.333-25.6-12.8-42.667l34.133-68.267-34.133-68.267c-8.533-17.067 0-34.133 12.8-42.667l72.533-34.133 12.8-76.8c4.267-17.067 21.333-29.867 38.4-25.6l81.067 12.8 59.733-55.467c12.8-12.8 34.133-12.8 46.933 0l59.733 55.467 81.067-12.8c17.067-4.267 34.133 8.533 38.4 25.6l12.8 76.8 72.533 34.133c17.067 8.533 21.333 25.6 12.8 42.667l-46.933 68.267 34.133 68.267c8.533 17.067 4.267 34.133-12.8 42.667z" />
<glyph unicode="&#xe926;" glyph-name="award4" horiz-adv-x="819" d="M714.134 355.847l8.533 52.907-13.653 5.12c-6.827 1.707-15.36 5.12-22.187 6.827l121.173 117.76-274.773 39.253-122.88 249.173-122.88-249.173-276.48-40.96 121.173-117.76c-6.827-1.707-13.653-3.413-20.48-6.827l-13.653-3.413 8.533-52.907c-23.893-8.533-46.080-17.067-69.973-25.6l-11.947-5.12 37.547-167.253 17.067 6.827c34.133 13.653 68.267 27.307 104.107 35.84l-22.187-131.413 249.173 129.707 245.76-129.707-22.187 131.413c34.133-10.24 69.973-22.187 104.107-35.84l17.067-6.827 37.547 167.253-11.947 5.12c-22.187 8.533-44.373 17.067-66.56 25.6zM686.827 386.567l-15.36-88.747c-85.333 25.6-174.080 39.253-261.12 39.253s-174.080-13.653-259.413-39.253l-15.36 88.747c180.907 56.32 370.347 56.32 551.253 0zM63.894 306.354c17.067 6.827 34.133 13.653 49.493 18.773l11.947-68.267 17.067 5.12c13.653 5.12 29.013 8.533 42.667 11.947l1.707-11.947v-29.013c-34.133-8.533-68.267-20.48-100.693-34.133l-22.187 107.52zM732.907 200.54c-32.427 13.653-64.853 23.893-98.987 32.427l6.827 39.253c11.947-3.413 25.6-6.827 37.547-11.947l17.067-5.12 11.947 68.267c15.36-5.12 32.427-11.947 47.787-18.773l-22.187-104.107z" />
<glyph unicode="&#xe927;" glyph-name="award5" horiz-adv-x="819" d="M701.573 540.066c0.333 2.465 2.012 4.757 4.769 6.517 12.405 7.755 19.507 19.4 19.507 31.966s-7.102 24.197-19.494 31.953c-2.785 1.745-4.477 4.037-4.797 6.517s0.72 5.13 2.945 7.501c9.981 10.686 13.817 23.798 10.566 35.923s-13.125 21.547-27.115 25.823c-3.131 0.959-5.37 2.745-6.316 5.036-0.946 2.279-0.613 5.13 0.933 8.007 6.863 12.924 7.168 26.583 0.893 37.442-6.262 10.874-18.255 17.388-32.858 17.894-3.251 0.107-5.876 1.267-7.382 3.225s-1.918 4.797-1.185 8.007c2.945 12.845 0.679 24.785-6.356 33.619-8.595 10.793-23.119 15.178-38.869 11.579-6.382-1.546-10.953 1.918-11.22 8.595-0.786 22-15.178 37.363-35.018 37.363-6.756 0-13.578-1.826-20.334-5.41-5.716-3.065-11.1-0.959-13.059 5.382-5.344 17.429-18.507 28.262-34.405 28.262-9.673 0-19.148-4.037-27.329-11.685-4.823-4.477-10.541-3.731-14.018 1.839-7.755 12.352-19.4 19.481-31.953 19.481s-24.197-7.102-31.966-19.494c-3.505-5.596-9.221-6.303-14.005-1.852-8.221 7.661-17.668 11.713-27.329 11.713-15.882 0-29.061-10.833-34.405-28.249-1.946-6.356-7.262-8.488-13.059-5.41-6.756 3.584-13.591 5.41-20.346 5.41-19.84 0-34.245-15.363-35.018-37.363-0.239-6.649-4.744-10.073-11.22-8.595-15.737 3.625-30.274-0.786-38.882-11.579-7.036-8.834-9.287-20.786-6.329-33.619 0.733-3.197 0.32-6.036-1.185-7.995s-4.131-3.118-7.382-3.225c-14.618-0.506-26.596-7.048-32.886-17.922s-5.942-24.518 0.906-37.442c1.546-2.892 1.852-5.743 0.906-8.007s-3.185-4.077-6.316-5.036c-13.977-4.291-23.864-13.697-27.102-25.823s0.613-25.21 10.566-35.911c2.226-2.399 3.291-5.077 2.958-7.529s-2.025-4.757-4.797-6.489c-12.392-7.755-19.494-19.4-19.494-31.966s7.102-24.197 19.494-31.966c2.785-1.732 4.477-4.037 4.797-6.489s-0.733-5.103-2.945-7.501c-9.981-10.686-13.817-23.798-10.566-35.923s13.125-21.547 27.102-25.823c3.131-0.959 5.37-2.745 6.316-5.024s0.626-5.13-0.906-8.007c-6.863-12.911-7.196-26.555-0.906-37.429s18.255-17.416 32.886-17.922c3.279-0.12 5.904-1.267 7.394-3.238s1.918-4.797 1.185-7.982c-2.958-12.832-0.707-24.785 6.329-33.619 8.274-10.406 22.106-14.71 37.242-11.779-1.679-1.719-3.078-3.731-3.983-6.102l-101.894-270.696c-2.531-6.756-0.679-14.338 4.678-19.174 5.344-4.81 13.112-5.876 19.548-2.638l72.887 36.43 36.442-72.887c2.945-5.942 9.007-9.661 15.603-9.661 0.427 0 0.827 0.013 1.239 0.053 7.048 0.493 13.125 5.197 15.363 11.912l91.048 273.117c2.279-0.44 4.411-1.892 6.049-4.517 7.755-12.405 19.4-19.507 31.966-19.507s24.197 7.102 31.953 19.507c1.971 3.185 4.703 4.624 7.555 4.584l91.061-273.184c2.238-6.715 8.287-11.406 15.351-11.912 0.427-0.041 0.839-0.053 1.239-0.053 6.596 0 12.685 3.704 15.656 9.673l36.442 72.887 72.887-36.43c6.41-3.238 14.191-2.172 19.548 2.638 5.357 4.823 7.196 12.418 4.65 19.174l-101.894 270.696c-0.852 2.279-2.132 4.25-3.704 5.916 14.338-2.251 27.476 1.946 35.43 11.952 7.036 8.847 9.287 20.786 6.356 33.632-0.733 3.185-0.32 6.036 1.185 7.982 1.506 1.959 4.131 3.118 7.382 3.238 14.618 0.506 26.596 7.036 32.886 17.894 6.262 10.887 5.942 24.518-0.906 37.442-1.546 2.892-1.852 5.743-0.933 8.007s3.197 4.065 6.316 5.024c14.005 4.291 23.864 13.697 27.115 25.851 3.251 12.125-0.6 25.21-10.566 35.911-2.226 2.358-3.251 5.036-2.945 7.488zM409.495 372.040c-113.847 0-206.48 92.62-206.48 206.48s92.633 206.48 206.48 206.48c113.86 0 206.48-92.62 206.48-206.48s-92.62-206.48-206.48-206.48zM409.495 750.010c-94.566 0-171.489-76.924-171.489-171.489s76.924-171.489 171.489-171.489c94.538 0 171.489 76.924 171.489 171.489s-76.937 171.489-171.489 171.489z" />
<glyph unicode="&#xe928;" glyph-name="arkansas" d="M992.336 726.618c5.152 8.256 5.744 17.2 1.712 24.48-4.080 7.312-11.984 11.504-21.728 11.504h-82.304l29.184 37.168c7.568 9.696 13.568 26.336 13.824 38.672l0.272 12.976c0.192 8.32-2.896 16.192-8.704 22.128-5.808 5.984-13.632 9.28-21.952 9.28l-847.856 2.496c-8.816 0-16.784-3.728-21.872-10.24-5.136-6.496-6.832-15.168-4.704-23.68l50.864-206.144c1.856-7.568 2.912-21.056 2.32-28.816l-36.096-439.104c-0.704-8.288 1.936-16.336 7.344-22.656 5.472-6.336 13.008-10.080 21.344-10.592l44.096-2.912c1.792-0.144 3.44-1.936 3.376-3.76l-1.584-93.248c-0.128-8.336 2.96-16.144 8.816-22.144 5.776-5.936 13.616-9.232 21.904-9.296l543.856-2.048c8.464 0 16.224 3.376 21.952 9.36 5.68 6.096 8.56 14.048 8.128 22.432l-7.424 128.944c-0.416 6.992 1.952 19.136 4.912 25.52l58.416 125.392c2.944 6.272 10.72 15.568 16.336 19.504l33.696 23.664c11.072 7.728 20.144 23.712 21.088 37.248l3.568 52.096c0.288 3.808 4.368 9.328 7.936 10.688l27.264 10.4c12.688 4.864 25.312 18.224 29.424 31.152l10.432 32.928c3.76 11.904 3.2 29.664-1.28 41.36l-6.624 17.328c-1.744 4.624-0.88 13.568 1.696 17.76l68.368 110.16z" />
<glyph unicode="&#xe929;" glyph-name="osie-table" d="M335.45 281.834h-290.768v155.776h290.768v-155.776zM356.234 281.834h311.552v155.776h-311.552v-155.776zM356.234 105.306h311.552v155.744h-311.552v-155.744zM335.45 614.138h-290.768v-155.76h290.768v155.76zM356.234 458.378h311.552v155.76h-311.552v-155.76zM906.602 790.682h-789.216c-40.144 0-72.688-32.544-72.688-72.688v-83.072h934.624v83.072c-0.016 40.144-32.544 72.688-72.72 72.688zM688.538 458.378h290.768v155.76h-290.768v-155.76zM335.45 261.050h-290.768v-83.072c0-40.144 32.544-72.672 72.688-72.672h218.064v155.744zM688.538 281.834h290.768v155.776h-290.768v-155.776zM688.538 105.306h218.064c40.176 0 72.704 32.528 72.704 72.672v83.072h-290.768v-155.744z" />
<glyph unicode="&#xe92a;" glyph-name="osie-outside-link" d="M668.176 609.501c0.868-7.432 1.4-14.956 1.4-22.584 0-109.168-88.796-197.944-197.908-197.944-109.168 0-197.944 88.812-197.944 197.944 0 109.112 88.796 197.908 197.944 197.908 8.248 0 16.32-0.672 24.284-1.644l78.476 78.46c-32.052 12.016-66.584 18.904-102.743 18.904-161.928 0-293.66-131.696-293.66-293.624s131.752-293.66 293.676-293.66c161.892 0 293.624 131.752 293.624 293.66 0.036 35.628-6.672 69.68-18.372 101.308l-78.776-78.724zM845.853 959.976h-320.563l126.371-126.316-175.484-175.503 67.664-67.664 175.52 175.52 126.476-126.796z" />
<glyph unicode="&#xe92b;" glyph-name="osie" d="M946.081 485.35c-3.008 7.040-12.080 26.176-16.112 30.208-21.152 19.136-72.48 62.416-81.552 63.424-8.048 1.008-30.208-2.016-53.376-5.040 4.032 15.104 5.024 30.208 4.032 46.32l-13.072 78.528c0 4.032 10.048 7.056 10.048 7.056s30.224-36.256 47.328-50.352c2-2.016 3.024-20.128 12.080-22.144 10.080-2.016 27.184-5.024 28.208 14.096 0 0-20.144 111.76-31.216 126.864-4.016 5.040-7.056 9.056-11.056 13.088 15.104 0 29.184-9.072 35.216-23.168 0 3.024 0 5.040 0 8.048-3.008 20.144-21.136 33.232-41.264 31.216l93.648 148-115.792-137.952c-38.256 21.152-86.592 20.144-125.872-6.032v0 0c-44.288 2.016-81.552-32.224-83.552-75.52 0-4.016 0-8.048 0-12.080 6.032 29.2 27.168 51.344 54.368 60.416-7.040-9.056-12.096-20.144-16.112-30.208-28.208-19.12-40.288-52.352-33.232-84.576-29.184-27.184-82.56-48.336-164.112-53.36-16.112-1.008-46.32-9.056-70.48-28.192-3.008 3.024-7.040 7.040-10.064 10.080-35.248 45.296-97.664 65.44-155.056 46.32 0 0 0 0-1.008 0v0c-48.352 16.128-100.704-11.072-115.808-59.392-1.008-5.040-3.024-9.072-3.024-14.096 15.104 30.208 46.32 49.328 79.552 50.336-11.072-8.048-20.144-18.128-27.184-29.2-48.336-16.112-74.512-67.456-59.408-115.776 1.008-5.040 3.024-9.072 5.024-13.088-5.024 32.224 8.048 65.44 32.224 85.584-5.040-17.12-6.032-35.248-4.016-52.352-11.072-29.2-6.048-64.432 15.088-90.624 3.024-4.016 6.032-7.024 10.064-10.064-10.064 17.12-7.040 77.536-4.032 84.576 2.016-31.2 14.096-61.424 37.264-85.6 5.040-5.024 10.064-10.048 16.112-14.096-38.256 55.392-31.216 131.904 19.136 180.24 1.008 1.008 2.016 1.008 3.008 2.016-4.016-16.112-3.008-33.232 3.024-50.352 2.016-5.024 3.008-9.056 6.048-13.088-6.048 34.24 8.048 69.472 35.248 89.616 24.16 9.072 50.336 11.072 75.504 6.032 11.072-5.024 21.152-12.080 30.208-21.136-21.136-24.16-33.232-61.424-16.112-114.784 4.032-11.072 21.152-34.224 17.12-50.336-4.032-14.112-62.432-40.272-70.48-59.408-6.032-13.072 26.176-121.824 29.2-130.88 0 0 0-1.008 1.008-1.008 2.016-3.024 3.024-8.048 2.016-12.096v-12.064c0-6.048 0-9.088 6.032-10.096l29.2 2.032c1.008 0 2 4.016 0 7.056l-13.088 24.16c0 0-3.024 5.008-3.024 6.016l-5.024 19.152c0 0 0 0 0 1.008l-8.064 74.496c-1.008 6.048 4.016 11.088 10.064 11.088l-1.008-1.008c-4.016-4.048-4.016-9.088-1.008-13.104 12.080-17.104 47.312-82.576 48.336-83.584l13.072-13.072c2.016-2.032 4.032-5.040 4.032-7.040l1.008-12.096c0-6.016 5.040-10.064 11.072-10.064l28.192 1.008c1.008 0 1.008 5.040 0 5.040l-20.144 23.152-1.008 1.008-10.064 18.112-8.048 16.112c0 0 0 1.008-1.008 1.008l-22.16 59.424c-2.016 4.016-1.008 8.048 3.024 11.056 18.128 17.104 84.576 53.376 100.688 69.488 5.024 5.024 9.056 10.048 11.072 14.096 10.064 16.112 8.048 26.176 22.16 27.168 91.632 6.048 163.12 27.2 207.408 54.384 0-1.008 1.008-1.008 1.008-2.016 17.104-7.056 94.64-38.256 99.664-44.32 8.064-8.048 11.072-79.536 11.072-89.6 0-1.008 0-2-1.008-2l-15.088-7.040c-1.008-1.008-2.016-2.048-1.008-3.040l16.112-21.12c1.008-1.008 2.016-1.008 3.040 0l10.048 7.056c6.064 4 10.064 12.064 10.064 19.104 1.008 29.2 0 102.704-5.024 109.744-8.048 12.080-61.408 55.376-78.512 68.464 26.176 13.088 56.368 27.2 61.408 27.2 12.080 0 67.472-40.272 75.52-45.312 1.008 0 1.008-1.008 1.008-2.016l1.008-19.136c0-1.008 1.008-2 2.032-2l25.184 2c2.976 1.008 2.976 2.016 2.976 4.032zM621.873 679.67c2.016 10.064 7.056 20.128 13.104 28.192 0-2 0-4.016 0-5.024-2.032-4.032-4.048-8.048-6.048-12.080-2.016-3.024-4.032-7.056-7.056-11.088zM372.929 114.118c0-110.832-67.424-169.6-149.696-169.6-85.136 0-144.928 65.92-144.928 163.392 0 102.24 63.616 169.12 149.696 169.12 88.016 0 144.928-67.376 144.928-162.912zM122.785 108.854c0-68.8 37.312-130.432 102.832-130.432 66 0 103.312 60.688 103.312 133.776 0 64.016-33.488 130.896-102.832 130.896-68.864 0-103.312-63.536-103.312-134.24zM410.737 0.406c18.656-11.456 45.92-21.008 74.624-21.008 42.56 0 67.424 22.448 67.424 54.944 0 30.112-17.216 47.296-60.736 64.016-52.608 18.624-85.136 45.872-85.136 91.264 0 50.16 41.616 87.424 104.272 87.424 33.008 0 56.928-7.648 71.264-15.76l-11.472-33.936c-10.528 5.744-32.064 15.296-61.232 15.296-44 0-60.736-26.288-60.736-48.256 0-30.096 19.616-44.912 64.096-62.112 54.512-21.008 82.24-47.296 82.24-94.592 0-49.68-36.816-92.672-112.848-92.672-31.088 0-65.040 9.072-82.272 20.528l10.512 34.864zM683.601 271.766v-322h-41.632v322h41.632zM917.585 100.742h-125.312v-116.080h139.664v-34.896h-181.28v322h174.112v-34.88h-132.496v-101.744h125.312v-34.4z" />
</font>
</defs>
</svg>
